conanlcg
超級版主

[更 早] [歐美] [劇情] [BD-1080P] 黑色追殺令/緊急獵殺令 The.Hunted.1995.1080p.BluRay.x264-BRMP 9.84GB

-->

橡果彩票注册 www.bmscj.icu

帖子完整標題:黑色追殺令/緊急獵殺令 The.Hunted.1995.1080p.BluRay.x264-BRMP 9.84GB




◎譯  名 黑色追殺令 / 緊急獵殺令
◎片  名 The Hunted
◎年  代 1995
◎產  地 美國
◎類  別 劇情 / 動作 / 驚悚
◎語  言 英語 / 日語
◎上映日期 1995-02-24
◎IMDb評分 6.0/10 from 4350 users
◎IMDb鏈接 //www.imdb.com/title/tt0113360
◎豆瓣評分 6.0/10 from 205 users
◎豆瓣鏈接 https://movie.douban.com/subject/1297559/
◎片  長 106 分鐘
◎導  演 J.F. Lawton
◎編  劇 J.F. Lawton
◎主  演 克里斯多弗·蘭伯特 Christopher Lambert
      陳沖 Joan Chen
      尊龍 John Lone


◎標  簽 尊龍 | 美國 | 動作 | 陳沖 | 美國電影 | 1995 | 情色 | 電影

◎簡  介

  保羅雷辛(克里斯多弗·蘭伯特 Christopher Lambert)是個在日本工作的美籍業務員,他在異國邂逅了神秘的東方女郎Kirina(陳沖),被欲望沖昏頭的保羅馬上和她發生了關系。當他返回她的房間要取回鑰匙時,卻發現她已死于金城(尊龍)的刀下。金城是一個忍者集團的首腦,任何看到他廬山真面目的人都別想活命。在接下來的11個鐘頭內,保羅就要進行一場生存游戲,才能成為唯一見過金城的幸存者。

Video
ID : 1
Format : AVC
Format/Info : Advanced Video Codec
Format profile : [email protected]
Format settings : CABAC / 4 Ref Frames
Format settings, CABAC : Yes
Format settings, ReFrames : 4 frames
Codec ID : V_MPEG4/ISO/AVC
Duration : 1 h 50 min
Bit rate : 11.3 Mb/s
Width : 1 920 pixels
Height : 1 040 pixels
Display aspect ratio : 1.85:1
Frame rate mode : Constant
Frame rate : 23.976 (24000/1001) FPS
Color space : YUV
Chroma subsampling : 4:2:0
Bit depth : 8 bits
Scan type : Progressive
Bits/(Pixel*Frame) : 0.236
Stream size : 8.67 GiB (88%)
Writing library : x264 core 157 r2969 d4099dd
Encoding settings : cabac=1 / ref=4 / deblock=1:0:0 / analyse=0x3:0x133 / me=umh / subme=7 / psy=1 / psy_rd=1.00:0.00 / mixed_ref=1 / me_range=16 / chroma_me=1 / trellis=1 / 8x8dct=1 / cqm=0 / deadzone=21,11 / fast_pskip=0 / chroma_qp_offset=-2 / threads=18 / lookahead_threads=3 / sliced_threads=0 / nr=0 / decimate=1 / interlaced=0 / bluray_compat=0 / constrained_intra=0 / bframes=3 / b_pyramid=2 / b_adapt=1 / b_bias=0 / direct=1 / weightb=1 / open_gop=0 / weightp=2 / keyint=240 / keyint_min=23 / scenecut=40 / intra_refresh=0 / rc_lookahead=40 / rc=2pass / mbtree=1 / bitrate=11282 / ratetol=1.0 / qcomp=0.60 / qpmin=10 / qpmax=51 / qpstep=4 / cplxblur=20.0 / qblur=0.5 / ip_ratio=1.40 / aq=1:1.00
Default : Yes
Forced : No

Audio
ID : 2
Format : DTS
Format/Info : Digital Theater Systems
Codec ID : A_DTS
Duration : 1 h 50 min
Bit rate mode : Constant
Bit rate : 1 509 kb/s
Channel(s) : 6 channels
Channel layout : C L R Ls Rs LFE
Sampling rate : 48.0 kHz
Frame rate : 93.750 FPS (512 SPF)
Bit depth : 24 bits
Compression mode : Lossy
Stream size : 1.16 GiB (12%)
Language : English
Default : Yes
Forced : No

Menu
00:00:00.000 : en:Chapter 01
00:09:30.487 : en:Chapter 02
00:18:05.209 : en:Chapter 03
00:29:15.295 : en:Chapter 04
00:38:40.902 : en:Chapter 05
00:47:28.179 : en:Chapter 06
00:56:16.999 : en:Chapter 07
01:05:52.198 : en:Chapter 08
01:15:22.643 : en:Chapter 09
01:23:50.442 : en:Chapter 10
01:34:20.154 : en:Chapter 11
01:45:30.157 : en:Chapter 12





1 個附件 售價 大小 下載 時間

The.Hunted.1995.1080p.BluRay.x264-BRMP.torrent 0 金幣 49.98K 1148 次 15天前

#1樓
發帖時間:2019-05-28 15:45:14   |   回復數:2
liyouchai
超凡入圣№
謝謝樓主分享資源
15天前 #2樓
911degrees
隱世仙人♂
非常感謝,謝謝分享
14天前 #3樓
游客組