conanlcg
超級版主

[更 早] [歐美] [喜劇] [BD-1080P] 激情佳人 Brain.Smasher.A.Love.Story.1993.1080p.BluRay.x264.DD5.1-FGT 7.34GB

-->

橡果彩票注册 www.bmscj.icu

帖子完整標題:激情佳人 Brain.Smasher.A.Love.Story.1993.1080p.BluRay.x264.DD5.1-FGT 7.34GB




◎譯  名 激情佳人
◎片  名 Brain Smasher... A Love Story
◎年  代 1993
◎產  地 美國
◎類  別 喜劇 / 動作
◎語  言 英語
◎上映日期 1993-11-17
◎IMDb評分 5.7/10 from 1761 users
◎IMDb鏈接 //www.imdb.com/title/tt0106475
◎豆瓣評分 0/10 from 0 users
◎豆瓣鏈接 https://movie.douban.com/subject/4901267/
◎片  長 88 分鐘
◎導  演 Albert Pyun
◎編  劇 Albert Pyun
◎主  演 Andrew Dice Clay
      Teri Hatcher


◎標  簽 動作 | 美國 | 愛情 | 國外電影 | 喜劇 | 劇情 | 1993

◎簡  介

  暫無相關劇情介紹

Video
ID : 1
Format : AVC
Format/Info : Advanced Video Codec
Format profile : [email protected]
Format settings : CABAC / 4 Ref Frames
Format settings, CABAC : Yes
Format settings, ReFrames : 4 frames
Codec ID : V_MPEG4/ISO/AVC
Duration : 1 h 27 min
Bit rate : 11.5 Mb/s
Width : 1 920 pixels
Height : 1 080 pixels
Display aspect ratio : 16:9
Frame rate mode : Constant
Frame rate : 23.976 (24000/1001) FPS
Color space : YUV
Chroma subsampling : 4:2:0
Bit depth : 8 bits
Scan type : Progressive
Bits/(Pixel*Frame) : 0.231
Stream size : 7.06 GiB (96%)
Title : Brain.Smasher.A.Love.Story.1993.1080p.BluRay.x264.DD5.1-FGT
Writing library : x264 core 148 r2795M aaa9aa8
Encoding settings : cabac=1 / ref=4 / deblock=1:-2:-2 / analyse=0x3:0x113 / me=umh / subme=9 / psy=1 / psy_rd=1.00:0.15 / mixed_ref=1 / me_range=16 / chroma_me=1 / trellis=2 / 8x8dct=1 / cqm=0 / deadzone=21,11 / fast_pskip=1 / chroma_qp_offset=-3 / threads=24 / lookahead_threads=3 / sliced_threads=0 / nr=0 / decimate=1 / interlaced=0 / bluray_compat=0 / constrained_intra=0 / bframes=3 / b_pyramid=2 / b_adapt=1 / b_bias=0 / direct=3 / weightb=1 / open_gop=0 / weightp=2 / keyint=250 / keyint_min=25 / scenecut=40 / intra_refresh=0 / rc_lookahead=50 / rc=2pass / mbtree=1 / bitrate=11500 / ratetol=1.0 / qcomp=0.60 / qpmin=0 / qpmax=69 / qpstep=4 / cplxblur=20.0 / qblur=0.5 / vbv_maxrate=31250 / vbv_bufsize=31250 / nal_hrd=none / filler=0 / ip_ratio=1.40 / aq=1:1.00
Language : English
Default : Yes
Forced : No

Audio
ID : 2
Format : AC-3
Format/Info : Audio Coding 3
Commercial name : Dolby Digital
Codec ID : A_AC3
Duration : 1 h 27 min
Bit rate mode : Constant
Bit rate : 448 kb/s
Channel(s) : 6 channels
Channel layout : L R C LFE Ls Rs
Sampling rate : 48.0 kHz
Frame rate : 31.250 FPS (1536 SPF)
Bit depth : 16 bits
Compression mode : Lossy
Stream size : 282 MiB (4%)
Title : Brain.Smasher.A.Love.Story.1993.1080p.BluRay.x264.DD5.1-FGT
Language : English
Service kind : Complete Main
Default : Yes
Forced : No

Menu
00:00:00.000 : en:Chapter 01
00:00:00.959 : en:Chapter 02
00:14:57.271 : en:Chapter 03
00:29:43.406 : en:Chapter 04
00:44:54.608 : en:Chapter 05
00:59:38.241 : en:Chapter 06
01:07:45.686 : en:Chapter 07
01:17:46.244 : en:Chapter 08
01:24:44.913 : en:Chapter 09





1 個附件 售價 大小 下載 時間

Brain.Smasher.A.Love.Story.1993.1080p.BluRay.x264.DD5.1-FGT.torrent 0 金幣 37.26K 343 次 10天前

#1樓
發帖時間:2019-05-28 14:56:13   |   回復數:3
911degrees
隱世仙人♂
非常感謝,謝謝分享
10天前 #2樓
liyouchai
超凡入圣№
謝謝樓主分享資源
10天前 #3樓
kola13
一派掌門
感謝分享
10天前 #4樓
游客組