conanlcg
超級版主

[2018] [日本] [劇情] [BD-720P] 陽光姐妹淘/SUNNY我們的青春 Sunny.Our.Hearts.Beat.Together.2018.JAPANESE.720p.BluRay.x264-W

-->

橡果彩票注册 www.bmscj.icu

帖子完整標題:陽光姐妹淘/SUNNY我們的青春 Sunny.Our.Hearts.Beat.Together.2018.JAPANESE.720p.BluRay.x264-WiKi 4.70GB




◎譯  名 陽光姐妹淘 / SUNNY我們的青春(臺) / SUNNY陽光姊妹淘(港) / Sunny: Our Hearts Beat Together
◎片  名 SUNNY 強い気持ち?強い愛
◎年  代 2018
◎產  地 日本
◎類  別 劇情 / 喜劇 / 歌舞
◎語  言 日語
◎上映日期 2018-08-31(日本)
◎IMDb評分 7.0/10 from 153 users
◎IMDb鏈接 //www.imdb.com/title/tt7493818
◎豆瓣評分 8.6/10 from 7304 users
◎豆瓣鏈接 https://movie.douban.com/subject/27160618/
◎片  長 119分鐘
◎導  演 大根仁 Hitoshi Ohne
◎編  劇 大根仁 Hitoshi Ohne
◎主  演 筱原涼子 Ryoko Shinohara
      廣瀨鈴 Suzu Hirose
      板谷由夏 Yuka Itaya
      小池榮子 Eiko Koike
      友坂理惠 Rie Tomosaka
      渡邊直美 Naomi Watanabe
      池田依來沙 Elaiza Ikeda
      山本舞香 Maika Yamamoto
      野田美桜
      田邊桃子 Momoko Tanabe
      富田望生 Miu Tomita
      三浦春馬 Haruma Miura
      中川雅也 Lily Franky
      新井浩文 Hirofumi Arai
      矢本悠馬
      小野花梨 Karin Ono


◎標  簽 日本 | 日本電影 | 喜劇 | 翻拍 | 2018 | 日影 | 電影 | 廣瀨鈴

◎簡  介

  2011年に製作され、日本でもヒットした韓國映畫「サニー 永遠の仲間たち」を篠原涼子、広瀬すずの主演、「モテキ」「バクマン?!工未蟾時O督でリメイクした青春音楽映畫。90年代、青春の真っ只中にあった女子高生グループ「サニー」。楽しかったあの頃から、20年以上という歳月を経て、メンバーの6人はそれぞれが問題を抱える大人の女性になっていた?!弗單拴`」の元メンバーで専業主婦の奈美は、かつての親友?芹香と久しぶりに再會する。しかし、芹香の體はすでに末期がんに冒されていた?!桿坤糖挨摔玀σ歡趣坤堡撙螭勝嘶幛い郡ぁ工趣いη巰悚晤姢い驅g現するため、彼女たちの時間がふたたび動き出す?,F在の奈美役を篠原、高校時代の奈美役を広瀬が演じるほか、板谷由夏、小池栄子、ともさかりえ、渡辺直美らが顔をそろえる。90年代の音楽シーンを牽引した大ヒットメーカー、小室哲哉が音楽を擔當。

◎獲獎情況

  第61屆日本電影藍絲帶獎(2019)
  年度十佳日本電影

  第43屆報知映畫賞(2018)
  最佳影片(提名) 大根仁
  最佳女主角 筱原涼子



Video
ID : 1
Format : AVC
Format/Info : Advanced Video Codec
Format profile : [email protected]
Format settings : CABAC / 9 Ref Frames
Format settings, CABAC : Yes
Format settings, ReFrames : 9 frames
Codec ID : V_MPEG4/ISO/AVC
Duration : 1 h 58 min
Bit rate : 5 026 kb/s
Width : 1 280 pixels
Height : 694 pixels
Display aspect ratio : 1.85:1
Frame rate mode : Constant
Frame rate : 24.000 FPS
Color space : YUV
Chroma subsampling : 4:2:0
Bit depth : 8 bits
Scan type : Progressive
Bits/(Pixel*Frame) : 0.236
Stream size : 4.17 GiB (89%)
Writing library : x264 core 129 r2245+704+36 8e61944 tMod+MixAQ [[email protected]:2:0 X86_64]
Encoding settings : cabac=1 / ref=9 / deblock=1:-3:-3 / analyse=0x3:0x133 / me=umh / subme=11 / psy=1 / fade_compensate=0.00 / psy_rd=1.05:0.10 / mixed_ref=1 / me_range=32 / chroma_me=1 / trellis=2 / 8x8dct=1 / cqm=0 / deadzone=21,11 / fast_pskip=0 / chroma_qp_offset=-3 / threads=18 / lookahead_threads=3 / sliced_threads=0 / nr=0 / decimate=0 / interlaced=0 / bluray_compat=0 / constrained_intra=0 / fgo=0 / bframes=10 / b_pyramid=2 / b_adapt=2 / b_bias=0 / direct=3 / weightb=1 / open_gop=0 / weightp=2 / keyint=250 / keyint_min=24 / scenecut=40 / intra_refresh=0 / rc=2pass / mbtree=0 / bitrate=5026 / ratetol=1.0 / qcomp=0.70 / qpmin=0 / qpmax=69 / qpstep=4 / cplxblur=20.0 / qblur=0.5 / ip_ratio=1.40 / pb_ratio=1.30 / aq=1 / aq-strength=0.90 / aq-sensitivity=10.00 / aq-ifactor=1.00 / aq-pfactor=1.00 / aq-bfactor=1.00 / aq2=0
Language : Japanese
Default : Yes
Forced : No

Audio
ID : 2
Format : AC-3
Format/Info : Audio Coding 3
Commercial name : Dolby Digital
Codec ID : A_AC3
Duration : 1 h 58 min
Bit rate mode : Constant
Bit rate : 640 kb/s
Channel(s) : 6 channels
Channel layout : L R C LFE Ls Rs
Sampling rate : 48.0 kHz
Frame rate : 31.250 FPS (1536 SPF)
Bit depth : 16 bits
Compression mode : Lossy
Stream size : 544 MiB (11%)
Language : Japanese
Service kind : Complete Main
Default : Yes
Forced : No

Text #1
ID : 3
Format : UTF-8
Codec ID : S_TEXT/UTF8
Codec ID/Info : UTF-8 Plain Text
Duration : 1 h 58 min
Bit rate : 41 b/s
Count of elements : 1416
Stream size : 36.4 KiB (0%)
Language : English
Default : Yes
Forced : Yes

Text #2
ID : 4
Format : UTF-8
Codec ID : S_TEXT/UTF8
Codec ID/Info : UTF-8 Plain Text
Duration : 1 h 51 min
Bit rate : 37 b/s
Count of elements : 1402
Stream size : 30.3 KiB (0%)
Title : Simplified
Language : Chinese
Default : No
Forced : No

Text #3
ID : 5
Format : UTF-8
Codec ID : S_TEXT/UTF8
Codec ID/Info : UTF-8 Plain Text
Duration : 1 h 51 min
Bit rate : 37 b/s
Count of elements : 1402
Stream size : 30.3 KiB (0%)
Title : Traditional
Language : Chinese
Default : No
Forced : No

Menu
00:00:00.000 : en:第 01 章
00:07:05.125 : en:第 02 章
00:11:52.166 : en:第 03 章
00:19:16.125 : en:第 04 章
00:25:32.625 : en:第 05 章
00:30:44.291 : en:第 06 章
00:39:21.625 : en:第 07 章
00:43:46.750 : en:第 08 章
00:49:46.458 : en:第 09 章
00:54:51.375 : en:第 10 章
00:58:34.583 : en:第 11 章
01:04:44.125 : en:第 12 章
01:09:24.291 : en:第 13 章
01:14:52.875 : en:第 14 章
01:22:24.833 : en:第 15 章
01:32:34.041 : en:第 16 章
01:40:04.083 : en:第 17 章
01:51:43.958 : en:第 18 章





1 個附件 售價 大小 下載 時間

Sunny.Our.Hearts.Beat.Together.2018.JAPANESE.720p.BluRay.x264-WiKi.torrent 0 金幣 47.56K 1918 次 15天前

#1樓
發帖時間:2019-05-28 14:53:22   |   回復數:2
911degrees
隱世仙人♂
非常感謝,謝謝分享
15天前 #2樓
liyouchai
超凡入圣№
謝謝樓主分享資源
15天前 #3樓
游客組