conanlcg
超級版主

[更 早] [其他] [劇情] [BD-1080P] 燃情歲月/披頭傳奇外一章 Backbeat.1994.1080p.BluRay.x264.DTS-FGT 9.13GB

-->

橡果彩票注册 www.bmscj.icu

帖子完整標題:燃情歲月/披頭傳奇外一章 Backbeat.1994.1080p.BluRay.x264.DTS-FGT 9.13GB




◎譯  名 燃情歲月 / 披頭傳奇外一章 / 披頭歲月
◎片  名 Backbeat
◎年  代 1994
◎產  地 英國 / 德國
◎類  別 劇情 / 音樂 / 傳記 / 歷史
◎語  言 英語 / 德語 / 法語
◎上映日期 1994-04-01
◎IMDb評分 6.7/10 from 5369 users
◎IMDb鏈接 //www.imdb.com/title/tt0106339
◎豆瓣評分 8.0/10 from 218 users
◎豆瓣鏈接 https://movie.douban.com/subject/1305824/
◎片  長 100 分鐘
◎導  演 伊恩·索夫特雷 Iain Softley
◎編  劇 伊恩·索夫特雷 Iain Softley / Michael Thomas / Stephen Ward
◎主  演 斯蒂芬·多爾夫 Stephen Dorff
      雪莉·李 Sheryl Lee
      伊恩·哈特 Ian Hart


◎標  簽 英國 | Beatles | 音樂 | 搖滾 | 傳記 | 英國電影 | 1990s | 德國

◎簡  介

  暫無相關劇情介紹

◎獲獎情況

  第48屆英國電影學院獎(1995)
  電影獎 最佳英國影片(提名) 菲諾拉·德懷爾 / 伊恩·索夫特雷 / 斯蒂芬·伍利
  電影獎 最佳原創音樂 唐·渥斯
  電影獎 最佳音效(提名) Chris Munro / Robin O'Donoghue / Glenn Freemantle



Video
ID : 1
Format : AVC
Format/Info : Advanced Video Codec
Format profile : [email protected]
Format settings : CABAC / 4 Ref Frames
Format settings, CABAC : Yes
Format settings, ReFrames : 4 frames
Codec ID : V_MPEG4/ISO/AVC
Duration : 1 h 40 min
Bit rate : 11.5 Mb/s
Width : 1 920 pixels
Height : 1 040 pixels
Display aspect ratio : 1.85:1
Frame rate mode : Constant
Frame rate : 23.976 (24000/1001) FPS
Color space : YUV
Chroma subsampling : 4:2:0
Bit depth : 8 bits
Scan type : Progressive
Bits/(Pixel*Frame) : 0.240
Stream size : 8.07 GiB (88%)
Title : Backbeat.1994.1080p.BluRay.x264.DTS-FGT
Writing library : x264 core 148 r2795M aaa9aa8
Encoding settings : cabac=1 / ref=4 / deblock=1:-2:-2 / analyse=0x3:0x113 / me=umh / subme=9 / psy=1 / psy_rd=1.00:0.15 / mixed_ref=1 / me_range=16 / chroma_me=1 / trellis=2 / 8x8dct=1 / cqm=0 / deadzone=21,11 / fast_pskip=1 / chroma_qp_offset=-3 / threads=72 / lookahead_threads=3 / sliced_threads=0 / nr=0 / decimate=1 / interlaced=0 / bluray_compat=0 / constrained_intra=0 / bframes=3 / b_pyramid=2 / b_adapt=1 / b_bias=0 / direct=3 / weightb=1 / open_gop=0 / weightp=2 / keyint=250 / keyint_min=25 / scenecut=40 / intra_refresh=0 / rc_lookahead=50 / rc=2pass / mbtree=1 / bitrate=11500 / ratetol=1.0 / qcomp=0.60 / qpmin=0 / qpmax=69 / qpstep=4 / cplxblur=20.0 / qblur=0.5 / vbv_maxrate=31250 / vbv_bufsize=31250 / nal_hrd=none / filler=0 / ip_ratio=1.40 / aq=1:1.00
Language : English
Default : Yes
Forced : No

Audio
ID : 2
Format : DTS
Format/Info : Digital Theater Systems
Codec ID : A_DTS
Duration : 1 h 40 min
Bit rate mode : Constant
Bit rate : 1 509 kb/s
Channel(s) : 6 channels
Channel layout : C L R Ls Rs LFE
Sampling rate : 48.0 kHz
Frame rate : 93.750 FPS (512 SPF)
Bit depth : 24 bits
Compression mode : Lossy
Stream size : 1.06 GiB (12%)
Title : Backbeat.1994.1080p.BluRay.x264.DTS-FGT
Language : English
Default : No
Forced : No

Text
ID : 3
Format : UTF-8
Codec ID : S_TEXT/UTF8
Codec ID/Info : UTF-8 Plain Text
Duration : 1 h 37 min
Bit rate : 51 b/s
Count of elements : 1504
Stream size : 37.1 KiB (0%)
Language : English
Default : Yes
Forced : No

Menu
00:00:00.000 : en:Chapter 01
00:08:26.005 : en:Chapter 02
00:17:41.685 : en:Chapter 03
00:24:46.359 : en:Chapter 04
00:33:58.369 : en:Chapter 05
00:42:04.730 : en:Chapter 06
00:50:43.623 : en:Chapter 07
00:59:01.996 : en:Chapter 08
01:07:55.613 : en:Chapter 09
01:19:06.199 : en:Chapter 10
01:30:35.721 : en:Chapter 11
01:37:17.623 : en:Chapter 12
01:40:26.812 : en:Chapter 13





1 個附件 售價 大小 下載 時間

Backbeat.1994.1080p.BluRay.x264.DTS-FGT.torrent 0 金幣 46.16K 455 次 1月前

#1樓
發帖時間:2019-05-28 14:52:37   |   回復數:2
911degrees
隱世仙人♂
非常感謝,謝謝分享
1月前 #2樓
liyouchai
隱世仙人♂
謝謝樓主分享資源
1月前 #3樓
游客組