conanlcg
超級版主

[更 早] [歐美] [喜劇] [BD-1080P] 終極執行令/大賄賂 The.Big.Fix.1978.1080p.BluRay.x264.DTS-FGT 9.80GB

-->

橡果彩票注册 www.bmscj.icu

帖子完整標題:終極執行令/大賄賂 The.Big.Fix.1978.1080p.BluRay.x264.DTS-FGT 9.80GB




◎譯  名 終極執行令 / 大賄賂
◎片  名 The Big Fix
◎年  代 1978
◎產  地 美國
◎類  別 喜劇 / 懸疑 / 驚悚
◎語  言 英語
◎上映日期 1978-10-06
◎IMDb評分 6.4/10 from 1232 users
◎IMDb鏈接 //www.imdb.com/title/tt0077233
◎豆瓣評分 0/10 from 0 users
◎豆瓣鏈接 https://movie.douban.com/subject/1299264/
◎片  長 108 分鐘
◎導  演 Jeremy Kagan
◎編  劇 羅杰·西蒙 Roger L. Simon
◎主  演 理查德·德萊弗斯 Richard Dreyfuss
      邦妮·比蒂麗婭 Bonnie Bedelia
      約翰·利特高 John Lithgow
      Ofelia Medina


◎標  簽 1970s | 美國 | 1978

◎簡  介

  An ex-'60s radical now working as a private eye is hired by an old flame to investigate a political smear campaign. The case becomes more dangerous as it unfolds.

Video
ID : 1
Format : AVC
Format/Info : Advanced Video Codec
Format profile : [email protected]
Format settings : CABAC / 4 Ref Frames
Format settings, CABAC : Yes
Format settings, ReFrames : 4 frames
Codec ID : V_MPEG4/ISO/AVC
Duration : 1 h 47 min
Bit rate : 11.5 Mb/s
Width : 1 920 pixels
Height : 1 040 pixels
Display aspect ratio : 1.85:1
Frame rate mode : Constant
Frame rate : 23.976 (24000/1001) FPS
Color space : YUV
Chroma subsampling : 4:2:0
Bit depth : 8 bits
Scan type : Progressive
Bits/(Pixel*Frame) : 0.240
Stream size : 8.66 GiB (88%)
Title : The.Big.Fix.1978.1080p.BluRay.x264.DTS-FGT
Writing library : x264 core 148 r2795M aaa9aa8
Encoding settings : cabac=1 / ref=4 / deblock=1:-2:-2 / analyse=0x3:0x113 / me=umh / subme=9 / psy=1 / psy_rd=1.00:0.15 / mixed_ref=1 / me_range=16 / chroma_me=1 / trellis=2 / 8x8dct=1 / cqm=0 / deadzone=21,11 / fast_pskip=1 / chroma_qp_offset=-3 / threads=24 / lookahead_threads=3 / sliced_threads=0 / nr=0 / decimate=1 / interlaced=0 / bluray_compat=0 / constrained_intra=0 / bframes=3 / b_pyramid=2 / b_adapt=1 / b_bias=0 / direct=3 / weightb=1 / open_gop=0 / weightp=2 / keyint=250 / keyint_min=25 / scenecut=40 / intra_refresh=0 / rc_lookahead=50 / rc=2pass / mbtree=1 / bitrate=11500 / ratetol=1.0 / qcomp=0.60 / qpmin=0 / qpmax=69 / qpstep=4 / cplxblur=20.0 / qblur=0.5 / vbv_maxrate=31250 / vbv_bufsize=31250 / nal_hrd=none / filler=0 / ip_ratio=1.40 / aq=1:1.00
Language : English
Default : Yes
Forced : No

Audio
ID : 2
Format : DTS
Format/Info : Digital Theater Systems
Codec ID : A_DTS
Duration : 1 h 47 min
Bit rate mode : Constant
Bit rate : 1 509 kb/s
Channel(s) : 2 channels
Channel layout : L R
Sampling rate : 48.0 kHz
Frame rate : 93.750 FPS (512 SPF)
Bit depth : 16 bits
Compression mode : Lossy
Stream size : 1.14 GiB (12%)
Title : The.Big.Fix.1978.1080p.BluRay.x264.DTS-FGT
Language : English
Default : No
Forced : No

Menu
00:00:00.000 : en:Chapter 01
00:02:37.073 : en:Chapter 02
00:07:57.602 : en:Chapter 03
00:11:25.309 : en:Chapter 04
00:14:29.827 : en:Chapter 05
00:19:31.503 : en:Chapter 06
00:24:49.571 : en:Chapter 07
00:29:23.928 : en:Chapter 08
00:38:31.392 : en:Chapter 09
00:44:06.018 : en:Chapter 10
00:50:36.908 : en:Chapter 11
00:52:50.458 : en:Chapter 12
00:55:54.851 : en:Chapter 13
00:58:12.155 : en:Chapter 14
01:04:20.398 : en:Chapter 15
01:11:48.679 : en:Chapter 16
01:17:14.838 : en:Chapter 17
01:22:03.084 : en:Chapter 18
01:26:12.000 : en:Chapter 19
01:30:46.482 : en:Chapter 20
01:33:02.618 : en:Chapter 21
01:38:15.306 : en:Chapter 22
01:42:21.885 : en:Chapter 23
01:45:07.175 : en:Chapter 24





1 個附件 售價 大小 下載 時間

The.Big.Fix.1978.1080p.BluRay.x264.DTS-FGT.torrent 0 金幣 49.51K 231 次 2月前

#1樓
發帖時間:2019-05-28 14:51:59   |   回復數:2
911degrees
隱世仙人♂
非常感謝,謝謝分享
2月前 #2樓
liyouchai
隱世仙人♂
謝謝樓主分享資源
2月前 #3樓
游客組