conanlcg
超級版主

[2018] [日本] [劇情] [BD-720P] 我們來做體操吧 My.Retirement.My.Life.2018.JAPANESE.720p.BluRay.x264-WiKi 4.37GB

-->

橡果彩票注册 www.bmscj.icu

帖子完整標題:我們來做體操吧 My.Retirement.My.Life.2018.JAPANESE.720p.BluRay.x264-WiKi 4.37GB




◎譯  名 我們來做體操吧 / My Retirement,My Life
◎片  名 體操しようよ
◎年  代 2018
◎產  地 日本
◎類  別 劇情
◎語  言 日語
◎上映日期 2018-11-09(日本)
◎IMDb評分 5.6/10 from 5 users
◎IMDb鏈接 //www.imdb.com/title/tt9490990
◎豆瓣評分 0/10 from 0 users
◎豆瓣鏈接 https://movie.douban.com/subject/30241101/
◎片  長 109分鐘
◎導  演 菊地健雄 Takeo Kikuchi
◎編  劇 和田清人 Kiyohito Wada / 春藤忠溫
◎主  演 草刈正雄 Masao Kusakari
      木村文乃 Fumino Kimura
      渡邊大知 Daichi Watanabe
      山田真步 Maho Yamada
      片桐入 Hairi Katagiri
      余貴美子 Kimiko Yo
      平泉成 Sei Hiraizumi
      和久井映見 Emi Wakui


◎標  簽 日本 | 木村文乃 | 日本電影 | 草刈正雄 | 日影 | 劇情 | 2018 | 預告片

◎簡  介

  該作品講述了草刈飾演的一名單身父親,在退休后通過體操與他人建立關系,并且首次挑戰做家務的親情與真心滿載的故事。
文乃飾演的是18年前在母親去世后擔起家中所有家務的獨女。雖然一直堅強的支持著父親,卻因自身的婚期將近,教父親做起了家務。這也把文乃的家庭面投放到了大銀幕上。

Video
ID : 1
Format : AVC
Format/Info : Advanced Video Codec
Format profile : [email protected]
Format settings : CABAC / 9 Ref Frames
Format settings, CABAC : Yes
Format settings, ReFrames : 9 frames
Codec ID : V_MPEG4/ISO/AVC
Duration : 1 h 49 min
Bit rate : 5 094 kb/s
Width : 1 200 pixels
Height : 720 pixels
Display aspect ratio : 5:3
Frame rate mode : Constant
Frame rate : 23.976 (24000/1001) FPS
Color space : YUV
Chroma subsampling : 4:2:0
Bit depth : 8 bits
Scan type : Progressive
Bits/(Pixel*Frame) : 0.246
Stream size : 3.88 GiB (89%)
Writing library : x264 core 129 r2245+704+36 8e61944 tMod+MixAQ [[email protected]:2:0 X86_64]
Encoding settings : cabac=1 / ref=9 / deblock=1:-3:-3 / analyse=0x3:0x133 / me=umh / subme=11 / psy=1 / fade_compensate=0.00 / psy_rd=1.05:0.10 / mixed_ref=1 / me_range=32 / chroma_me=1 / trellis=2 / 8x8dct=1 / cqm=0 / deadzone=21,11 / fast_pskip=0 / chroma_qp_offset=-3 / threads=18 / lookahead_threads=3 / sliced_threads=0 / nr=0 / decimate=0 / interlaced=0 / bluray_compat=0 / constrained_intra=0 / fgo=0 / bframes=10 / b_pyramid=2 / b_adapt=2 / b_bias=0 / direct=3 / weightb=1 / open_gop=0 / weightp=2 / keyint=250 / keyint_min=23 / scenecut=40 / intra_refresh=0 / rc=2pass / mbtree=0 / bitrate=5094 / ratetol=1.0 / qcomp=0.70 / qpmin=0 / qpmax=69 / qpstep=4 / cplxblur=20.0 / qblur=0.5 / ip_ratio=1.40 / pb_ratio=1.30 / aq=1 / aq-strength=0.90 / aq-sensitivity=10.00 / aq-ifactor=1.00 / aq-pfactor=1.00 / aq-bfactor=1.00 / aq2=0
Language : Japanese
Default : Yes
Forced : No

Audio
ID : 2
Format : AC-3
Format/Info : Audio Coding 3
Commercial name : Dolby Digital
Codec ID : A_AC3
Duration : 1 h 49 min
Bit rate mode : Constant
Bit rate : 640 kb/s
Channel(s) : 6 channels
Channel layout : L R C LFE Ls Rs
Sampling rate : 48.0 kHz
Frame rate : 31.250 FPS (1536 SPF)
Bit depth : 16 bits
Compression mode : Lossy
Stream size : 500 MiB (11%)
Language : Japanese
Service kind : Complete Main
Default : Yes
Forced : No

Text #1
ID : 3
Format : UTF-8
Codec ID : S_TEXT/UTF8
Codec ID/Info : UTF-8 Plain Text
Duration : 1 h 48 min
Bit rate : 29 b/s
Count of elements : 1177
Stream size : 23.2 KiB (0%)
Title : Simplified
Language : Chinese
Default : Yes
Forced : No

Text #2
ID : 4
Format : UTF-8
Codec ID : S_TEXT/UTF8
Codec ID/Info : UTF-8 Plain Text
Duration : 1 h 48 min
Bit rate : 29 b/s
Count of elements : 1177
Stream size : 23.2 KiB (0%)
Title : Traditional
Language : Chinese
Default : No
Forced : No

Menu
00:00:00.000 : :絎?01 绔?
00:14:52.975 : :絎?02 绔?
00:25:24.147 : :絎?03 绔?
00:39:21.859 : :絎?04 绔?
00:52:36.570 : :絎?05 绔?
01:06:10.883 : :絎?06 绔?
01:21:59.873 : :絎?07 绔?
01:35:38.357 : :絎?08 绔?
01:43:55.687 : :絎?09 绔?
01:49:08.541 : :絎?10 绔?





1 個附件 售價 大小 下載 時間

My.Retirement.My.Life.2018.JAPANESE.720p.BluRay.x264-WiKi.torrent 0 金幣 44.26K 819 次 1月前

#1樓
發帖時間:2019-05-28 14:50:40   |   回復數:2
911degrees
隱世仙人♂
非常感謝,謝謝分享
1月前 #2樓
liyouchai
隱世仙人♂
謝謝樓主分享資源
1月前 #3樓
游客組