conanlcg
超級版主

[2018] [歐美] [劇情] [WEB-1080P] 海星 Starfish.2018.1080p.WEB-DL.DD5.1.H264-FGT 3.47GB

-->

橡果彩票注册 www.bmscj.icu

帖子完整標題:海星 Starfish.2018.1080p.WEB-DL.DD5.1.H264-FGT 3.47GB




◎譯  名 海星
◎片  名 Starfish
◎年  代 2018
◎產  地 美國
◎類  別 劇情 / 科幻 / 恐怖
◎語  言 英語
◎上映日期 2018-09-21(Fantastic Fest)
◎IMDb評分 6.4/10 from 118 users
◎IMDb鏈接 //www.imdb.com/title/tt5700182
◎豆瓣評分 0/10 from 0 users
◎豆瓣鏈接 https://movie.douban.com/subject/30339455/
◎導  演 A.T. White
◎編  劇 A.T. White
◎主  演 維吉尼亞·加德納 Virginia Gardner
      克里斯蒂娜·馬斯特森 Christina Masterson
      Eric Beecroft


◎標  簽 科幻 | 恐怖 | 劇情 | VirginiaGardner | A._T._White | 2018 | 2010s

◎簡  介

  A unique, intimate and honest portrayal of a girl grieving for the loss of her best friend. That just happens to take place on the day the world ends as we know it.

Video
ID : 1
Format : AVC
Format/Info : Advanced Video Codec
Format profile : [email protected]
Format settings : CABAC / 5 Ref Frames
Format settings, CABAC : Yes
Format settings, ReFrames : 5 frames
Codec ID : V_MPEG4/ISO/AVC
Duration : 1 h 40 min
Bit rate : 4 558 kb/s
Width : 1 920 pixels
Height : 818 pixels
Display aspect ratio : 2.35:1
Frame rate mode : Constant
Frame rate : 23.976 FPS
Color space : YUV
Chroma subsampling : 4:2:0
Bit depth : 8 bits
Scan type : Progressive
Bits/(Pixel*Frame) : 0.121
Stream size : 3.20 GiB (92%)
Title : Starfish.2019.1080p.WEB-DL.DD5.1.H264-FGT
Language : English
Default : Yes
Forced : No
Color range : Limited
Color primaries : BT.709
Transfer characteristics : BT.709
Matrix coefficients : BT.709

Audio
ID : 2
Format : AC-3
Format/Info : Audio Coding 3
Commercial name : Dolby Digital
Codec ID : A_AC3
Duration : 1 h 40 min
Bit rate mode : Constant
Bit rate : 384 kb/s
Channel(s) : 6 channels
Channel layout : L R C LFE Ls Rs
Sampling rate : 48.0 kHz
Frame rate : 31.250 FPS (1536 SPF)
Bit depth : 16 bits
Compression mode : Lossy
Stream size : 276 MiB (8%)
Title : Starfish.2019.1080p.WEB-DL.DD5.1.H264-FGT
Language : English
Service kind : Complete Main
Default : Yes
Forced : No

Menu
00:00:00.000 : en:Hello
00:00:01.000 : en:The Wake
00:00:05.000 : en:Breaking In
00:00:09.000 : en:Grace\'s Apartment
00:00:15.000 : en:Distractions
00:00:20.000 : en:The Seventh Signal
00:00:22.000 : en:Snow
00:00:25.000 : en:Anyone There
00:00:27.000 : en:The Seaweed Creature
00:00:30.000 : en:Chris
00:00:32.000 : en:This Mixtape Will Save the World
00:00:33.000 : en:Grace\'s Message
00:00:37.000 : en:The Second Signal
00:00:39.000 : en:What If...
00:00:42.000 : en:If I Choose to Ignore It
00:00:44.000 : en:Later...
00:00:47.000 : en:Broken
00:00:49.000 : en:The Tapes
00:00:52.000 : en:Supermarket
00:00:54.000 : en:Sinking
00:01:00.000 : en:Cinema
00:01:04.000 : en:All the Lost Stories
00:01:06.000 : en:The Library
00:01:08.000 : en:Grace
00:01:13.000 : en:Using the Signal
00:01:18.000 : en:The Beach
00:01:21.000 : en:Confronting the Seaweed Creature
00:01:24.000 : en:The Radio Station
00:01:27.000 : en:Will This Mixtape Save the World
00:01:32.000 : en:The Unknown
00:01:36.000 : en:Gloomy Planets





1 個附件 售價 大小 下載 時間

Starfish.2018.1080p.WEB-DL.DD5.1.H264-FGT.torrent 0 金幣 35.17K 539 次 1月前

#1樓
發帖時間:2019-05-28 12:59:06   |   回復數:2
liyouchai
隱世仙人♂
謝謝樓主分享資源
1月前 #2樓
911degrees
隱世仙人♂
非常感謝,謝謝分享
1月前 #3樓
游客組