conanlcg
超級版主

[更 早] [歐美] [愛情] [BD-1080P] 夏日天堂/萬花綿繡 Summer.Stock.1950.1080p.BluRay.x264-CiNEFiLE 9.84GB

-->

橡果彩票注册 www.bmscj.icu

帖子完整標題:夏日天堂/萬花綿繡 Summer.Stock.1950.1080p.BluRay.x264-CiNEFiLE 9.84GB




◎譯  名 夏日天堂 / 萬花綿繡 / 夏季劇團 / 夏日巡演
◎片  名 Summer Stock
◎年  代 1950
◎產  地 美國
◎類  別 愛情 / 歌舞
◎語  言 英語
◎上映日期 1950-08-31
◎IMDb評分 7.2/10 from 3215 users
◎IMDb鏈接 //www.imdb.com/title/tt0043012
◎豆瓣評分 0/10 from 0 users
◎豆瓣鏈接 https://movie.douban.com/subject/1307880/
◎片  長 108 分鐘
◎導  演 查爾斯 沃爾特斯 (Charles Walters)
◎編  劇 George Wells / Sy Gomberg
◎主  演 Judy Garland
      Gene Kelly


◎標  簽 歌舞片 | Musical | 1950 | 歌舞 | Judy_Garland | 美國 | Charles_Walters | 1950s

◎簡  介

  As a favor to her actress sister Abigail, New England farmer Jane Falbury allows a group of actors use her barn as a theater for their play. In return, the cast and crew have to help her with the farm chores. During rehearsals, Jane finds herself falling for the show's director, Joe Ross, who also happens to be engaged to the show's leading lady-- Abigail.

Video
ID : 1
Format : AVC
Format/Info : Advanced Video Codec
Format profile : [email protected]
Format settings : CABAC / 5 Ref Frames
Format settings, CABAC : Yes
Format settings, ReFrames : 5 frames
Codec ID : V_MPEG4/ISO/AVC
Duration : 1 h 49 min
Bit rate : 11.4 Mb/s
Width : 1 488 pixels
Height : 1 080 pixels
Display aspect ratio : 1.378
Frame rate mode : Constant
Frame rate : 23.976 (24000/1001) FPS
Color space : YUV
Chroma subsampling : 4:2:0
Bit depth : 8 bits
Scan type : Progressive
Bits/(Pixel*Frame) : 0.295
Stream size : 8.69 GiB (88%)
Writing library : x264 core 157 r2969 d4099dd
Encoding settings : cabac=1 / ref=5 / deblock=1:-3:-3 / analyse=0x3:0x113 / me=umh / subme=8 / psy=1 / psy_rd=1.00:0.00 / mixed_ref=1 / me_range=16 / chroma_me=1 / trellis=2 / 8x8dct=1 / cqm=0 / deadzone=21,11 / fast_pskip=0 / chroma_qp_offset=-2 / threads=24 / lookahead_threads=4 / sliced_threads=0 / nr=0 / decimate=1 / interlaced=0 / bluray_compat=0 / constrained_intra=0 / bframes=3 / b_pyramid=2 / b_adapt=1 / b_bias=0 / direct=1 / weightb=1 / open_gop=0 / weightp=2 / keyint=250 / keyint_min=23 / scenecut=40 / intra_refresh=0 / rc_lookahead=40 / rc=2pass / mbtree=1 / bitrate=11376 / ratetol=1.0 / qcomp=0.60 / qpmin=0 / qpmax=69 / qpstep=4 / cplxblur=20.0 / qblur=0.5 / ip_ratio=1.40 / aq=1:1.00
Language : English
Default : Yes
Forced : No

Audio
ID : 2
Format : DTS
Format/Info : Digital Theater Systems
Codec ID : A_DTS
Duration : 1 h 49 min
Bit rate mode : Constant
Bit rate : 1 509 kb/s
Channel(s) : 2 channels
Channel layout : L R
Sampling rate : 48.0 kHz
Frame rate : 93.750 FPS (512 SPF)
Bit depth : 24 bits
Compression mode : Lossy
Stream size : 1.15 GiB (12%)
Language : English
Default : Yes
Forced : No

Text #1
ID : 3
Format : UTF-8
Codec ID : S_TEXT/UTF8
Codec ID/Info : UTF-8 Plain Text
Duration : 1 h 46 min
Bit rate : 84 b/s
Count of elements : 2198
Stream size : 66.1 KiB (0%)
Language : English
Default : No
Forced : No

Text #2
ID : 4
Format : UTF-8
Codec ID : S_TEXT/UTF8
Codec ID/Info : UTF-8 Plain Text
Duration : 1 h 46 min
Bit rate : 87 b/s
Count of elements : 2304
Stream size : 68.2 KiB (0%)
Title : SDH
Language : English
Default : No
Forced : No

Menu
00:00:00.000 : en:00:00:00.000
00:01:52.112 : en:00:01:52.112
00:04:07.247 : en:00:04:07.247
00:07:37.207 : en:00:07:37.207
00:11:46.748 : en:00:11:46.748
00:14:29.660 : en:00:14:29.660
00:17:27.630 : en:00:17:27.630
00:20:58.966 : en:00:20:58.966
00:24:09.448 : en:00:24:09.448
00:28:43.430 : en:00:28:43.430
00:33:17.204 : en:00:33:17.204
00:39:18.565 : en:00:39:18.565
00:41:28.861 : en:00:41:28.861
00:44:55.693 : en:00:44:55.693
00:49:19.999 : en:00:49:19.999
00:53:07.393 : en:00:53:07.393
00:57:01.960 : en:00:57:01.960
01:00:49.646 : en:01:00:49.646
01:04:02.547 : en:01:04:02.547
01:06:30.987 : en:01:06:30.987
01:09:40.510 : en:01:09:40.510
01:13:40.625 : en:01:13:40.625
01:17:15.631 : en:01:17:15.631
01:22:08.132 : en:01:22:08.132
01:25:26.872 : en:01:25:26.872
01:28:37.896 : en:01:28:37.896
01:31:55.635 : en:01:31:55.635
01:35:07.410 : en:01:35:07.410
01:37:05.528 : en:01:37:05.528
01:38:50.383 : en:01:38:50.383
01:42:42.365 : en:01:42:42.365
01:45:44.338 : en:01:45:44.338
01:48:06.647 : en:01:48:06.647





1 個附件 售價 大小 下載 時間

Summer.Stock.1950.1080p.BluRay.x264-CiNEFiLE.torrent 0 金幣 49.83K 266 次 2月前

#1樓
發帖時間:2019-05-28 11:10:06   |   回復數:2
liyouchai
隱世仙人♂
謝謝樓主分享資源
2月前 #2樓
911degrees
隱世仙人♂
非常感謝,謝謝分享
2月前 #3樓
游客組